Index Of Flac Beatles

The Beatles Something 2019 Mix Audio. I don't want to convert them to mp3 cause the quality goes abit ****ter, does anyone know if it's possible to burn them on cd and put it through iTunes like any. Albums: Second Album; The Beatles - The Beatles Bootleg Recordings 1963 (2013) The Beatles - Help! Studio Sessions: Back To Basics; The Beatles - The Beatles Bootleg Recordings 1963; The Beatles-On Air - Live at the BBC, Vol. Anyway, The "flac" files here ARE NOT flac. Label Pear Catalogue No. Описание: Новые альбомы The Beatles не выходили The Beatles / Please Please Me. – A Hero’s Death (2020) [24bit FLAC] Foals – Collected Reworks Vol. Considerati uno dei maggiori fenomeni della musica contemporanea, a distanza di vari. flac 33 MB; 09. 2 (2020) [24bit FLAC] Exotic Sin – Customer’s Copy (2020) [24bit FLAC] Eric Lu – Late Works by Mozart, Schubert & Brahms (2018) [24bit FLAC] Top Posts. flac" WAVE TRACK 01 AUDIO TITLE. The MFSL record is the best. wav" WAVE TRACK 09 AUDIO TITLE "Can't Buy Me Love. 00b: October 5 2013 at 23:00: Chris Rea - The Road To Hell (1989) 0. 1 Khz 24 bit and MP3 320 Kbps formats, fully compatible with both PC and Mac. Index Of Queen Flac. Faenza & Marco Horvat – Airs a quatre parties du Sieur Dassoucy (2019) [24bit FLAC] Fontaines D. Here is the link to both the Beatles in 24 Bit FLAC and mono for all of you who havent experienced them in this format. I wrote this this script to do the same. Coldplay - A Rush of Blood to the Head [HDTracks 24-192] FLAC. In its first release in 1990, Music with Sound took the audio art world by storm. Buy and download flac hi-res music every day from your favorite artist. flac 30 MB; 08. Here you will discover the rare recordings of "Canterbury" and "UK Prog Rock". Río Roma - Rojo (2021) Hi-Res. cue,log,scans) Time: 16 CDs, 15:02:45 min Total Size: 4,85 Gb. альбом включает в себя следующие треки: 01. Not sure If I mentioned this here, but it would be the Beatles Apple USB. The Beatles - Lossless - The Beatles Rockband Rubber Soul (Volume Nine Stereo Dolby Digital)(Beatcomber PCS 329) (1970) (FLAC) The Beatles - Lossless - The Beatles Something Extra (1970) (FLAC) The Beatles - Lossless - Beatles VI (NZ-UK Export 24 96 Needledrop)(Qcumbaman) (1970) (FLAC). The Beatles Музыкальный жанр/ стиль: Beat, Pop Rock Дата записи/ выхода: 1999 Всего треков: 25 Выпущен фирмой: Release, Gala Records Каталог №: GL20203 Файл раздачи: FLAC (image+. FLAC (hi-res): This lossless compression format supports hi-res sample rates, takes up about half the space of WAV, and stores metadata. Lineage: CD>EAC The Beatles - Black Album (STU/FLAC) - Guitars101 - Guitar Forums. Can't Buy Me Love (Stanley Turrentine). Скачать альбом The Beatles - The Beatles: The White Album 50th Anniversary, Virtual Surround в формате FLAC через торрент. O{+> & The New Power Generation 'Purple High Court' (2008 Eye Records : ER064) Diamonds And Pearls Tour Earl's Court, London, England Monday June 15th, 1992 Stereo Soundboard Recording. You have to hear THE BEATLES MFSL collection to believe it. Source(s): https://shrinks. No artist, however, is quite as collectible as the Beatles, though Elvis Presley comes close. Here at Allflac. © 2015 Calderstone Productions Limited (a division of Universal Music Group) / Apple Films Ltd. flac” WAVE TRACK 01 AUDIO TITLE “Magical Mystery Tour” PERFORMER “The Beatles” REM COMPOSER “” INDEX 00 00:00:00 INDEX 01 00:00:33 TRACK 02 AUDIO TITLE “The Fool On The Hill” PERFORMER “The Beatles” REM COMPOSER “” INDEX 00 02:49:35 INDEX 01 02:52:20 TRACK 03. i just didnt want to buy one of these and not have it work. A specially designed Flash interface has been installed, and the 16GB USB’s audio and visual contents will be provided in FLAC 44. I wrote this this script to do the same. 00b: October 5 2013 at 23:00: Darude - Before The Storm: 0. - In case the Audio Material is out of print, hard-to-find, or inaccessible in your country, you possess an authentic version of the album as standard CD - You're previewing/sampling the musical files before purchasing the Audio Material. The Rolling Stones – Sticky Fingers Live (2015) [iTunes Plus AAC M4A] 70s and 80s Together Synths (2016) Chief Keef - Finally Rolling 2 (Deluxe Edition) (2015). com you can download lossless music in popular formats FLAC, APE, ALAC, MP3, M4A. If you prefer -V 2 then change the vbr-quality setting, but not any of the others. Thou Shalt Not. Start your free trial now!. csv - Generated every 24 hours automatically, size is ~280MB currently To request an account please send me a message (I don't see chats on mobile so may take longer to reply to those, also please be patient as I don't always have time to jump on the. The official website for George Harrison. Heart Of Stone 10. Music with Sound, the magnum opus by the Tape-beatles, and more recently re-mastered by Public Works, can be seen as an exercise in archaeology. Simhadri is a 2003 Indian Telugu-language action film directed by S. FLAC: 1978-01-30: Dire Straits: Angels On A Saturday Night : The Polytechnic: Leeds: England: FLAC: 1987-01-30: Metallica: Untitled: Friederich-Ebert-Halle: Ludwigshafen: Germany: FLAC: 1988-01-30: Pink Floyd: Another Australian Night (IFWT-CDR-048) The Entertainment Center: Sydney: Australia: FLAC: 1992-01-30: Rush: Mirrors: Oakland Coliseum: Oakland: CA: USA: FLAC: 1992-01-30: Rush: Conduction. flac 36 MB; 05. The Who O2 Dublin 08-06-2013. Студия: House Of Audio, Irond Ltd. Audiophiles that only use FLAC are usually enjoying a modern jazz album, acoustic albums, even live music. I currently rip my cd's to flac using eac. 2 (2020) The Beatles – Getting Better All The Time EP (2021) The Beatles – At Home With The Beatles EP (2020) The Beatles – The Beatles – Study Songs Vol. I added 10 directories containing flac + cue files to the import directory. Torrent info. O ur "FREE" on-line "2020" BEATLES CATALOG Now Available! "Click Here!" FREE Beatles Catalog (Click Here)To receive our "Extensive" Beatles Catalog (Hardcopy), featuring 100's of Original Beatles records, albums, 45's, LP's EP's memorabilia collectible items and autographs yet to be posted here, send $10. Год: 1963-2013 Жанр: Classic Rock. 24BIT FLAC download. Pepper (Pear)-PDP 004 005 The Alternate Revolver [Pear]-PDP 005 006 The Alternate Rubber Soul (Pear)-PDP 006 008 The Alternate Help! [Pear Records]-PDP 008 009 The Alternate Magical Mystery Tour (Pear)-PDP 009 011 The Alternate Abbey Road Pear PCP 011]. flac download. 1M: 下载: Haunted: Evanescence: 2020-08-14 05:33:03: flac: 92M: 下载: Cassiopeia: Max Richter: 2020-08-14 05:27:52: flac: 73. 9M: 下载: Eight Days A Week (Remastered 2009) The Beatles: 2020-08-14 05:59:10: flac: 55. jpg 5,184 × 3,456; 3. torrent 128Kbps 7MB :. Nahrávejte, sdílejte a stahujte zdarma. The Beatles -09- Everybody's Got Something To Hide Except Me And My Monkey. Despite being available for more than fifty years and with most of their records never going out […]. REM GENRE Rock REM DATE 1963 PERFORMER "The Beatles" FILE "Please Please Me. However, the band's international discography is complicated, due to different versions of their albums sometimes being released in other countries, particularly during their early years on Capitol Records in North America. Produced by George Martin, it was released on EMI's Parlophone label on 22 March 1963 in the United Kingdom, following the success of the band's singles "Please Please Me" and "Love Me Do", which reached number 1 on the NME and Melody Maker charts and number 17 on the UK Singles Chart, respectively. 1kHz, CD-Format | Full Scans Included. Beatles Albums and Why People Collect Them When it comes to record collecting, some artists are more popular with collectors than others. The film was presented by V. 1 kHz (Tracks) Artist: Anna B Savage Title: A Common Turn Released: 2021 Style: Indie, Alternative, Singer-Songwriter RAR Size: 843 Mb + 242 Mb. – A Hero’s Death (2020) [24bit FLAC] Foals – Collected Reworks Vol. FlacMusicFinder. All popular music albums format Mp3 / Flac at MusicRW. Only Best FLAC. INDEX OF SOUNDTRACKS Volume 2 Bear McCreary Beatles Benjamin Wallfisch Bernard Gérard Nino Rota Now available in Flac OUT OF PRINT Patrick Cassidy Patrick. Live unreleased music from The Artist - Your Monthly Bootlegs fix since 1998!(Soundboard FLAC). The Beatles - Дискография (MP3, FLAC) - Музыка и Фильмы скачать бесплатно mp3, песня, фильм, не торрент, прямая ссылка. Скачать альбом The Beatles - The Beatles: The White Album 50th Anniversary, Virtual Surround в формате FLAC через торрент. Bootlegs: Performer First: Performer Last: Title: Date: Venue: City: State / Country: Tracker: Track # Torrent Date: Pkg: Type: Standard: Date @ Beatles: Alternate. Pepper's Lonely Hearts Club Band [FLAC] TNT V torrent or any other torrent from the Audio FLAC. Quality: FLAC 24 bit / 96 kHz (Tracks) Artist: Chic Title: The Studio Album Collection 1977-1992 Released: 2013 Style: Disco, Funk, Soul RAR Size: 6. The tapes contained songs titled "Grow Old With Me" and "Now and Then," featuring Lennon on piano and vocals. Kredit umožní i stahování neomezenou. The BEATLES Story-Part 01 THE BIRTH OF THE LIVERPOOL SOUND. Every Time I Look At You. Bands The Beatles. There is no other way to get the Beatles in good quality on a digital format. The group, whose best-known line-up comprised John Lennon, Paul McCartney, George Harrison and Ringo Starr, are regarded as the most influential band of all time. formato: FLAC + CUE. Index Of Beatles Flac. flac" WAVE TRACK 01 AUDIO TITLE. HTTP download also available at fast speeds. On our site you can download lossless music for free and without registration, favorite performers in flac format, for fans to listen to vinyl digitization - Vinyl rip, gourmets of the music world who want to listen to multi-channel. 2M The Beatles -10- Child of Nature. lazonby at 2012-03-29 04:20 CET: Thanks! Would love to see a. The Beatles(甲壳虫乐队),英国摇滚乐队,由约翰列侬(John Lennon)、林戈斯塔尔(Ringo Starr)、保罗麦卡特尼(Paul McCartney)和乔治哈里森(George Harrison)四名成员组成。1960年,乐队于英格兰利物浦市成立,其音乐风格源自20世纪50年代的摇滚乐,并开拓了迷. 5M: 下载: Nocturne Op 9 No. csv - Generated every 24 hours automatically, size is ~280MB currently To request an account please send me a message (I don't see chats on mobile so may take longer to reply to those, also please be patient as I don't always have time to jump on the. The Beatles Featuring Tony Sheridan & Various ‎- The Beatles' First [Vinyl-Rip, Reissue] (1964/1982) FLAC. Unbelievably good, and I am not prone to audio hyperbole. (Midas Touch 93621/2) Recorded Live in Isle of Wight - August 29, 1970 & Stockholm - December 12, 1970. List to Beatles bootleg downloads (updated) Bootleg Network. Music with Sound, the magnum opus by the Tape-beatles, and more recently re-mastered by Public Works, can be seen as an exercise in archaeology. 1 Todo Cambia 2 Un Vestido y un Amor 3 Yo Vengo a Olfrecer Mi Corazón 4 La Maza 5 Gracias a la Vida 6 Y Dale Alegría a Mi Corazón 7 Los Mareados 8 Sólo le Pido a Dios 9 Razón de Vivir 10 El Tiempo Es Veloz 11 Mon Amour 12 La Estrella Azul 13 Inconciente Colectivo 14 Luna. Music video by The Beatles performing Come Together. Not sure If I mentioned this here, but it would be the Beatles Apple USB. , Massacre Records, ArtMusic Group, Magic Circle Music Country / Страна: Germany Genre / Жанр: Heavy Metal Студия: Artist / Исполнитель In Residence Country / Страна: United States Genre / Жанр: Alternative Rock Quality / Формат: FLAC (*tracks,scans). Скачать альбом The Beatles - The Beatles: The White Album 50th Anniversary, Virtual Surround в формате FLAC через торрент. PERFORMER "Beatles" INDEX 01 00:00:00 FILE "07 - One After 909. 1khz) and in DRM-free MP3 (320kpbs) with a one-click 'Export To Media Player' function. IllBeBack Scanner Internet Archive HTML5 Uploader 1. The Beatles -09- Everybody's Got Something To Hide Except Me And My Monkey. In my opinion, THE BEATLES MFSL collection sounds far more superior than the 2009 Remasters or any other BEATLES release in the past. Genre : Indie Rock, Shoegaze, Post Rock Release Date : 2021 Format : Flac (tracks) Quality : 24bit - 48. The Beatles Official Discography FLAC (3. Excellent Stereo Soundboard Recording:: Bootleg Siver CD:: CBR 320 kbps & FLAC. - ripped to wav with Easy CD-DA Extractor - encoded to flac with TLH. 1963 - Please Please Me. Index Of Queen Flac. No artist, however, is quite as collectible as the Beatles, though Elvis Presley comes close. , Massacre Records, ArtMusic Group, Magic Circle Music Country / Страна: Germany Genre / Жанр: Heavy Metal Студия: Artist / Исполнитель In Residence Country / Страна: United States Genre / Жанр: Alternative Rock Quality / Формат: FLAC (*tracks,scans). 1 kHz (Tracks) Artist: The Beatles Title: The Beginnings Of The Beatles: From Hamburg To London 1961-1962 Released: 2013 Style: Pop Rock RAR Size: 593 Mb. Classical: Albinoni / Giazzoto: Adagio Bach: Magnificat Bach: The Brandenburg Concertos Prince of Thieves (Expanded with SFX) RoboCop The Rock (Expanded - 32 mp3 tracks) The Rock (Expanded - 37 flac tracks) Romancing the Stone. to je v Čechách a na Slovensku jedničkou pro svobodné sdílení souborů. Considerati uno dei maggiori fenomeni della musica contemporanea, a distanza di vari. The Beatles Complete U. • 1 hour ago by vitas in Music > Lossless. cue, log), EAC Burst, scans Length: 47:48 min Tracks: 11 Total Size: 339 Mb (+3%) WebSite: discogs. Back In The U. [AVCD-96526] Country: USA Genre: Heavy Metal, Progressive Metal, Hard Rock, Instrumental Quality: FLAC (*image +. Pepper's Lonely Hearts Club Band [FLAC] TNT V torrent or any other torrent from the Audio FLAC. Albums: Second Album; The Beatles - The Beatles Bootleg Recordings 1963 (2013) The Beatles - Help! Studio Sessions: Back To Basics; The Beatles - The Beatles Bootleg Recordings 1963; The Beatles-On Air - Live at the BBC, Vol. But once I realized there is no copyright protection on it, I copied the FLAC files to my Laptop, and sold that puppy off for a nice profit. This is as good as you can get at the moment (2012). Nigra Nebula - Das Model. They were integral to the development of 1960s counterculture and popular music's recognition as an art form. 21 GB: 1 0: 14 Окт 20: The Beatles - Abbey Road [Vinyl-Rip, Reissue] (1969/1985) FLAC : 1. The Beatles,Sgt. High quality The Beatles MP3 downloads from 7digital United States. Faenza & Marco Horvat – Airs a quatre parties du Sieur Dassoucy (2019) [24bit FLAC] Fontaines D. I checked all the computer settings and all is as it should be - the Lyngdorf amp correctly indicates 96kHz as the incoming digital signal, using either Foobar or J River Media Center, on a Win7 machine with WASAPI. In their native United Kingdom, between 1962 and 1970, the English rock band the Beatles released 12 studio albums, 13 extended plays (EPs) and 22 singles. In my opinion, THE BEATLES MFSL collection sounds far more superior than the 2009 Remasters or any other BEATLES release in the past. Albums: Second Album; The Beatles - The Beatles Bootleg Recordings 1963 (2013) The Beatles - Help! Studio Sessions: Back To Basics; The Beatles - The Beatles Bootleg Recordings 1963; The Beatles-On Air - Live at the BBC, Vol. The first triple album by a solo artist, the original vinyl release featured two LPs of rock. Here is a list of 27 AC/DC albuma that you will download with this link:- The Best Of AC/DC 76 Jailbreak Back in Black BallBreaker Blow Up Your Video. All popular music albums format Mp3 / Flac at MusicRW. • 1 hour ago by vitas in Music > Lossless. A huge database of Beatles (and other artists) bootlegs (incl. The sound is quite good as mp3 so I would say just post as mp3 unless you verify them as flac. Download beatles flac mono Torrents – KickassTorrents, Come and download What It Actually Is And Why It's Important ” Brett December 17, 2012 at 8:36 am. The index will aid those that prefer an A to Z alphabetical listing and help you instantly. The Beatles (Toshiba-EMI CP25-5329-30), The Beatles In Mono Box Set (TOCP-71041-53), все видео рипы в The Beatles Stereo Box Set (папки extra); gerrV: Live At The BBC (EU, Apple 3749153), The U. The Beatles. 97 beta 1 -V 2 --vbr-new mp3's. 8224MHz | FLAC Tracks / 24bit / 88. In its first release in 1990, Music with Sound took the audio art world by storm. No artist, however, is quite as collectible as the Beatles, though Elvis Presley comes close. The BEATLES Story-Part 02 GETTING IT ONTO WAX. The Beatles Something 2019 Mix Audio. Pepper's Lonely Hearts Club Band\04 - Getting Better. Студия: House Of Audio, Irond Ltd. Listen free to The Beatles – The Beatles Greatest Hits FLAC Collection. formato: FLAC + CUE. Leif Garrett - Still I Wish. FILE “The Beatles – The Capitol Albums Vol. The Beatles - The U. 1963 - Please Please Me. But first, let me say that this. Parent Directory. Everywhere It's Christmas - 1966. Leif Garrett - Still I Wish. 1 kHz (Tracks) Artist: Anna B Savage Title: A Common Turn Released: 2021 Style: Indie, Alternative, Singer-Songwriter RAR Size: 843 Mb + 242 Mb. org - Ваш торрент-трекер! (Classic Rock) The Beatles - Live At The Hollywood Bowl 1964-1965 (Universal, 060255705497 2, EU) 2016, FLAC (image+. Albums: Second Album; The Beatles - The Beatles Bootleg Recordings 1963 (2013) The Beatles - Help! Studio Sessions: Back To Basics; The Beatles - The Beatles Bootleg Recordings 1963; The Beatles-On Air - Live at the BBC, Vol. Hi guys , I just downloaded every album from The Beatles in. THE BEATLES MFSL collection sounds more crisp with no distortion and bass that will make any stereo system sound great. The Beatles HELL was the unavoidable sequel to the massive 2006 internet hit, The Beatles HATE. The Beatles,Sgt. More The-beatles-flac available on the site. 2013- In A World Like This (flac) 315mb. flac 30 MB; 06. Hanno segnato un'epoca non solo nella musica ma anche nel costume, nella moda e nella moderna pop art[1]. Free: Isle of Wight & Stockholm. flac" WAVE TRACK 01 AUDIO TITLE "Shout (Part 1)" PERFORMER "The Isley Brothers" INDEX 01 00:00:00 TRACK 02 AUDIO TITLE "Hey-Hey-Hey-Hey (Going Back To Birmingham)" PERFORMER "Little Richard" INDEX 01 02:14:18 TRACK 03 AUDIO TITLE "Bad Boy (Junior Behave Yourself)" PERFORMER "Larry Williams" INDEX 01 04:18:51. cue,log,scans) Time: 16 CDs, 15:02:45 min Total Size: 4,85 Gb. Board index » Bootlegs & Rare Records » Bootlegs Discussions » Beatlegs. flac Ramones - Do You Remember Rock And Roll Radio. Bootlegs: Performer First: Performer Last: Title: Date: Venue: City: State / Country: Tracker: Track # Torrent Date: Pkg: Type: Standard: Date @ Beatles: Alternate. Genre : Indie Rock, Shoegaze, Post Rock Release Date : 2021 Format : Flac (tracks) Quality : 24bit - 48. The Beatles - Meet The Beatles! Albums FLAC. Albums Box Set (USA, Capitol 602537614127) ;. It seems like the problem is flac specific. orgSkid - Row - Best-of-Greatest - Hits - 1998 -FLAC-h33t- Kitlope Quote: Skid Row is an American heavy metal band, formed in 1986 in Toms River, New Jersey. Albums: Second Album; The Beatles - The Beatles Bootleg Recordings 1963 (2013) The Beatles - Help! Studio Sessions: Back To Basics; The Beatles - The Beatles Bootleg Recordings 1963; The Beatles-On Air - Live at the BBC, Vol. Quality: FLAC | lossless (tracks) Length: 56:23 min Tracks: 15 Total Size: 359 MB (+5%) WebSite:---- Первый проект The Blues Meets The Beatles был создан американским блюзменом и продюсером Fred James в 2001 году и издан небольшим тиражом. Mixed in of course with other bands as well! Hal Jalikeakick http://www. RichUK- Thanks very much for the information. Search Torrents Category for Various Artists - Beatles 69 Vol 2 Abbey Road [Flac Cue][TNT], Torrent finder is a bit torrent multi search engine 🚀 which searches 129 torrent sites and trackers from one page, write your torrent keywords then check on your favorite torrent sites and trackers to start your search. Simhadri is a 2003 Indian Telugu-language action film directed by S. The Beatles - The Beatles / White Album [Vinyl-Rip, Remastered] (1968/2012) FLAC : 1. torrent 320Kbps 11MB : www. You have to hear THE BEATLES MFSL collection to believe it. The Beatles HELL was the unavoidable sequel to the massive 2006 internet hit, The Beatles HATE. Waters-King. (1963) - Mono. The first two songs, "Free As A Bird" and "Real Love," were completed and released in 1995 and 1996 on the first two volumes of the Anthology soundtracks. Classical: Albinoni / Giazzoto: Adagio Bach: Magnificat Bach: The Brandenburg Concertos Prince of Thieves (Expanded with SFX) RoboCop The Rock (Expanded - 32 mp3 tracks) The Rock (Expanded - 37 flac tracks) Romancing the Stone. Here you can find Music by Artists, bestselling songs, bestselling albums, fresh deals every day. flac” WAVE TRACK 01 AUDIO TITLE “No Reply” PERFORMER “The Beatles” ISRC GBAYE0401924 INDEX 01 00:00:00 TRACK 02 AUDIO TITLE “I’m A Loser” PERFORMER “The Beatles” ISRC GBAYE0401925 INDEX 01 02:18:64 TRACK 03 AUDIO TITLE “Baby’s In Black” PERFORMER. The Beatles Музыкальный жанр/ стиль: Beat, Pop Rock Дата записи/ выхода: 1999 Всего треков: 25 Выпущен фирмой: Release, Gala Records Каталог №: GL20203 Файл раздачи: FLAC (image+. In Things We Said Today and I'll Be Back, the A major chord is heard at the end of each verse although both songs are set in A minor. Leif Garrett - I Want You To Want Me. I use FLAC primarily as a method for backing up my music. Heart Of Stone 10. HTTP download also available at fast speeds. To enable you to sample on your Walkman, the same track is available in High-Resolution Audio and a widely used compressed audio format. Descarga acá Mercedes Sosa – The Best of. From a device on the same network, you can use. We provide fast downloadable and reliable service for you. The Beatles,Sgt. Used drive : PLEXTOR DVDR PX-891SA Adapter: 1 ID: 0. List to Beatles bootleg downloads (updated) Bootleg Network. 54 GB (ISO) + 1. The Beatles Something 2019 Mix Audio. The Beatles - Complete CD Discography (1963-2013). 1"PERFORMER "The Beatles"TITLE "1"FILE "The Beatles - 1. 1968 - The Beatles [White Album]. Mixed in of course with other bands as well! Hal Jalikeakick http://www. flac 36 MB; 05. All CDs are in FLAC and MP3 format. Quality: FLAC 24 bit / 48 kHz (Tracks) + FLAC 16 bit / 44. It's royalty-free and widely supported (though not by Apple) and is considered the preferred format for downloading and storing hi-res albums. Here you will discover the rare recordings of "Canterbury" and "UK Prog Rock". Just leave it as mp3. I am in the process of converting the flac files to LAME 3. Abreme :v En esta ocasión les traigo la discografia de The Beatles completa y en alta calidad. Leif Garrett - Alive (Today). Quality: FLAC 24 bit / 96 kHz (Tracks) Artist: Chic Title: The Studio Album Collection 1977-1992 Released: 2013 Style: Disco, Funk, Soul RAR Size: 6. Coldplay - A Rush of Blood to the Head [HDTracks 24-192] FLAC. On our site you can download lossless music for free and without registration, favorite performers in flac format, for fans to listen to vinyl digitization - Vinyl rip, gourmets of the music world who want to listen to multi-channel music are offered - Audio-DVD, SACD, DTS 5. 83 Gb (+3%) WebSite: Home Page. HTTP download also available at fast speeds. All in FLAC (free lossless audio codec) with excellent sound quality. Download discography The Beatles on site losslessalbums. Index Of Flac Beatles. If the mode is set to one of the Rename or Copy options, then the files will be moved or copied to the new destination, while preserving the existing file and folder structure. Leave a Reply Cancel reply. The BEATLES Story-Part 02 GETTING IT ONTO WAX. Download The-Beatles-FLAC Fast and for Free. Albums: Second Album; The Beatles - The Beatles Bootleg Recordings 1963 (2013) The Beatles - Help! Studio Sessions: Back To Basics; The Beatles - The Beatles Bootleg Recordings 1963; The Beatles-On Air - Live at the BBC, Vol. Patrick Bruel - Ce soir on sort + [FLAC] The Beatles - I Saw Her Standing There 2CD (2013) The Beatles - The U. 1 > Peak Pro XT (volume smoothing / edit / index) > xACT 2. Download rock album by The Beatles ‎- Abbey Road (Anniversary Edition) (2019) FLAC 5. Pepper`s Lonely Hearts Club Band. The film was presented by V. The Beatles - I'll Be Back. HDtracks is a high-resolution music platform for music lovers to download their favorite tracks in master studio quality. Heart Of Stone 10. b/hakunamatata. A specially designed Flash interface has been installed, and the 16GB USB’s audio and visual contents will be provided in FLAC 44. At least not in stereo (excluding the flat transfers of the original stereo mixes that were included in the Mono Beatles CD box). The 24/96 FLAC version sounds rather CD-like, to my ears. Bruce Springsteen (Steel Mill) The Upstage Asbury Park, NJ January 22, 1971 (Previously Un-circulated) (The penultimate Steel Mill show) Transfer: Cassette Master > Reel > CDR > EAC Rip >. flac” WAVE TRACK 01 AUDIO TITLE “Magical Mystery Tour” PERFORMER “The Beatles” REM COMPOSER “” INDEX 00 00:00:00 INDEX 01 00:00:33 TRACK 02 AUDIO TITLE “The Fool On The Hill” PERFORMER “The Beatles” REM COMPOSER “” INDEX 00 02:49:35 INDEX 01 02:52:20 TRACK 03. RichUK- Thanks very much for the information. 3 MB) 05 - Wild Honey Pie. Performer: The Beatles Album: The Decca Audition Label: Parlophone Catalog #: TOCP-6211 Style: Rock Year: 1962 (2009) Format: FLAC (image Catalog #: 2022833 Style: Jazz Year: 2006 Format: FLAC (image +. 4 MB) 07 - While My Guitar Gently Weeps. Artist: Ella Fitzgerald Title: The Complete Ella Fitzgerald Song Books Year Of Release: 2010 Label: PolyGram (Verve) Genre: Jazz, Vocal Jazz Quality: FLAC (*tracks+. Set the options in Windows media player or other software to use a high bit rate when you rip your CDs to MP3 or flac files. It will convert from any audio format/codec supported by gstreamer to mp3 lame -V 4. I'm A King Bee [0:03:51. 24BIT FLAC download. Something Beatles Song. 1"PERFORMER "The Beatles"TITLE "1"FILE "The Beatles - 1. FLAC - Ac/Dc live in Dortmund 1991 - 2CD - September 18. Please feel free to comment and give your own BBI ratings. Download The Beatles - The Beatles - Meditation Mix (2020) or any other file from Music category. flac" WAVE TRACK 01 AUDIO TITLE "No Reply" INDEX 01 00:00:00 TRACK 02 AUDIO TITLE "I'm A Loser" INDEX 01 02:12:22 TRACK 03 AUDIO TITLE "Baby's In Black" INDEX 01 04:38. FILE "The Beatles - Meet The Beatles!. The Beatles in Mono > 1-Channel FLAC? Reply #2 – 2010-03-26 14:39:17 You probably save more space by switching to a higher compression setting, and it'd probably take about the same amount of time. Pbthal, spectrum analysis shows FLAC for this EP to be remarkably similar to his red wax LP FLAC, and indeed it sounds like it (see also remarks for pbthal’s EP FLAC for “Chains”). flac 3 min 38 s; 128. The Beatles 'No Obvious Title - First Amendment (Remastered Edition)' (2011 Remasters Workshop : RMW 643) Studio Soundboard Recordings Encoded: 320 Kbps MP3 & FLAC Restored from the 1976 album on Ze Anonym Plattenspieler ZAP 7853 32-bit raw vinyl transfer Declicked, denoised, pitch, phase + level corrected, remastered. Download discography The Beatles on site losslessalbums. flac rip of “Slave to the Grind. The Beatles Official Discography FLAC (3. 5M: 下载: Nocturne Op 9 No. flac 38 MB; 07. Listen free to The Beatles – The Beatles Greatest Hits FLAC Collection. flac" WAVE TRACK 01 AUDIO TITLE. By flacmusic 2021, Flac, Hi-Res & Vinyl, Indie, Alternative, Rock 0 Comments. Albums: Second Album; The Beatles - The Beatles Bootleg Recordings 1963 (2013) The Beatles - Help! Studio Sessions: Back To Basics; The Beatles - The Beatles Bootleg Recordings 1963; The Beatles-On Air - Live at the BBC, Vol. the beatles unsurpassed broadcasts (16cd with artwork and booklet) (click) the beatles - beginning of the end 1 - 12 (click) the beatles pod-casts (flac) click remasters workshop collection (click) misterclaudel collection (click) the beatles - studio 2 sessions at abbey road upgrade (4x cd) the beatles - back to basics collection (click). (Pop Rock, Classic Rock, Rock'N'Roll, Psychedelic Rock Размер The Beatles - 33 Albums, 3 Singles, 6 Box-Sets Размер. Index Of Queen Flac. The Beatles. I'm not saying you did this but somewhere along the line someone did. wav files > Peak Pro XT (subtle tweak / edit / re-index) > xACT 2. US LP Introducing the Beatles, et. Back In The U. The Beatles - Beatles for Sale. me - Kaavaa Ulla (From Parris Jeyaraj) (2020) 1st Single - Tamil iTunes TRUE MP3 320Kbps 11MB. FILE “The Beatles – The Capitol Albums Vol. The Beatles - Essentials [] Kbps [pradyutvam]. The official website for George Harrison. The Beatles Recordings - Main Index. • 1 hour ago by vitas in Music > Lossless. Thou Shalt Not. PDP-CH - London Symphony Orchestra - Landon Ronald - Pau Casals, Cello - Cello Concerto in B-flat major, G482 - Luigi Boccherini - Hmv-db3058-2ea4161. In Things We Said Today and I'll Be Back, the A major chord is heard at the end of each verse although both songs are set in A minor. Download The Beatles - Sgt. It borrows from Dante Alighieri’s The Divine Comedy, and it tells the story of the FabFour descending the various circles of HELL (as a war victim would). The Beatles Complete U. Chicane - Far From The Maddening Crowds 2007 [FLAC]-JDR: 0. The BEATLES Story-part 01-tr05. 2 (2020) [24bit FLAC] Exotic Sin – Customer’s Copy (2020) [24bit FLAC] Eric Lu – Late Works by Mozart, Schubert & Brahms (2018) [24bit FLAC] Top Posts. 2kHz Single Layer SACD | No Scans Included Total Size: 3. 0 (24/96) capture > pitch correction > iZotope RX MBIT+ resample 16/44. 24BIT FLAC download. Lineage: CD>EAC The Beatles - Black Album (STU/FLAC) - Guitars101 - Guitar Forums. Pepper's Lonely Hearts Club Band (Red Wax Mono Version),1967,ENG,Rock,FLAC, The Beatles,Sgt. © 2015 Calderstone Productions Limited (a division of Universal Music Group) / Apple Films Ltd. The spelling of "feat" was an homage to the Beatles. Bee[FLAC+CUE] CD: Muddy Waters - King Bee 01. Some commands may be invoked using Rest_api interface. 7 - December 1963 / February 1964 (Hd Remastered Edition) BBC Archives Vol. Roberts MFSL Vinyl pack and PBTHAL's MFSL Sgt. The BEATLES Story-part 01-tr05. 2M The Beatles -10- Child of Nature. But first, let me say that this. альбом включает в себя следующие треки: 01. flac 34 MB; 03. I Beatles sono stati un gruppo musicale britannico, originario di Liverpool e in attività dal 1962 al 1970. A huge database of Beatles (and other artists) bootlegs (incl. aif -> CD-R ->. Download samples of High-Resolution music files. Bruce Springsteen (Steel Mill) The Upstage Asbury Park, NJ January 22, 1971 (Previously Un-circulated) (The penultimate Steel Mill show) Transfer: Cassette Master > Reel > CDR > EAC Rip >. Click On Any Of The Blue Links Below To Take You To The Indexes OF Releases in Date Order. Set the options in Windows media player or other software to use a high bit rate when you rip your CDs to MP3 or flac files. Only Best FLAC. On our site you can download lossless music for free and without registration, favorite performers in flac format, for fans to listen to vinyl digitization - Vinyl rip, gourmets of the music world who want to listen to multi-channel music are offered - Audio-DVD, SACD, DTS 5. flac 33 MB; 09. IllBeBack Scanner Internet Archive HTML5 Uploader 1. flac 36 MB; 05. Not sure If I mentioned this here, but it would be the Beatles Apple USB. (Midas Touch 93621/2) Recorded Live in Isle of Wight - August 29, 1970 & Stockholm - December 12, 1970. 0 MB) 04 - Ob-La-Di, Ob-La-Da. Kredit umožní i stahování neomezenou. wav" WAVE TRACK 09 AUDIO TITLE "Can't Buy Me Love. 3 MB) 05 - Wild Honey Pie. Index - The Model. Best quality lossless flac music. On our site you can download lossless music for free and without registration, favorite performers in flac format, for fans to listen to vinyl digitization - Vinyl rip, gourmets of the music world who want to listen to multi-channel. The Beatles – Please Please Me (1963/2009) FLAC (tracks) 24 bit/44,1 kHz | Time – 32:28 minutes | 429 MB. A specially designed Flash interface has been installed, and the 16GB USB’s audio and visual contents will be provided in FLAC 44. The Beatles The Original Studio Recordings Flac. If you use high bit rate MP3 or "lossless" flac files, there is no loss of sound quality. The Audiophile Music Player. ie keep your music organized. flac 29 MB; 04. Used drive : PLEXTOR DVDR PX-891SA Adapter: 1 ID: 0. , Massacre Records, ArtMusic Group, Magic Circle Music Country / Страна: Germany Genre / Жанр: Heavy Metal Студия: Artist / Исполнитель In Residence Country / Страна: United States Genre / Жанр: Alternative Rock Quality / Формат: FLAC (*tracks,scans). It borrows from Dante Alighieri’s The Divine Comedy, and it tells the story of the FabFour descending the various circles of HELL (as a war victim would). Mental Conquest - Spacelab. The Beatles. Hi guys , I just downloaded every album from The Beatles in. Music with Sound, the magnum opus by the Tape-beatles, and more recently re-mastered by Public Works, can be seen as an exercise in archaeology. Скачать альбом The Beatles - The Beatles: The White Album 50th Anniversary, Virtual Surround в формате FLAC через торрент. She's In Love 06. It was compiled by me for the 100 greatest bootlegs blog (March 2016). FILE “The Beatles – The Capitol Albums Vol. The tapes contained songs titled "Grow Old With Me" and "Now and Then," featuring Lennon on piano and vocals. Coldplay - A Rush of Blood to the Head [HDTracks 24-192] FLAC. Addeddate 2013-04-01 19:04:35 Identifier B6. flac Ramones - Do You Remember Rock And Roll Radio. A huge database of Beatles (and other artists) bootlegs (incl. ERIC CLAPTON JEFF BECK JIMMY PAGE LED ZEPPELIN THE WHO THE KINKS SMALL FACES PRETTY THINGS THE BEATLES THE ROLLING STONES FLEETWOOD THE ANIMALS. 1 (2020) The Beatles – The Beatles – Meditation Mix EP (2020). Dear Prudence (3:56) 03. Leif Garrett - Promise Me. Index Of Beatles Flac. The Beatles - 1967 - Magical Mystery Tour Recordin The Beach Boys - 1960 - Time to Get Alone (STU/FLAC) David Lee Roth - 1986 - Eat Em And Smile Outtakes. Год: 1963-2013 Жанр: Classic Rock. The Beatles - The Beatles / White Album [Vinyl-Rip, Remastered] (1968/2012) FLAC. Flac : 1980-01-16: Bob Dylan : Paramount Northwest Theatre: Seattle : Flac : 1980-03-18: Rush 1968-08-20 · The Beatles @ -, - · The Peter Sellers Tape · 3. Nahrávejte, sdílejte a stahujte zdarma. The sources I have used are in brackets after the notes on each track. aif -> CD-R ->. cue) Bitrate: lossless Covers: full (600 DPI) Amount of tracks: 17 Size ZIP: ~ 486 mb. Try out sample tracks to experience High-Resolution Audio. The Beatles - Stereo Box Set (2009) Joe Cocker - Greatest Hits [Vinyl rip 24 bit 96 khz] [2015. Mean Old Frisco B. If the mode is set to one of the Rename or Copy options, then the files will be moved or copied to the new destination, while preserving the existing file and folder structure. The Beatles -09- Everybody's Got Something To Hide Except Me And My Monkey. cue,log,scans) Time: 16 CDs, 15:02:45 min Total Size: 4,85 Gb. Index of soundtracks. The Beatles in Mono > 1-Channel FLAC? Reply #2 – 2010-03-26 14:39:17 You probably save more space by switching to a higher compression setting, and it'd probably take about the same amount of time. Best quality lossless flac music. Music video by The Beatles performing Come Together. The BEATLES Story-Part 02 GETTING IT ONTO WAX. Torrent info. Bootlegs: Performer First: Performer Last: Title: Date: Venue: City: State / Country: Tracker: Track # Torrent Date: Pkg: Type: Standard: Date @ Beatles: Alternate. INDEX OF SOUNDTRACKS Volume 2 Bear McCreary Beatles Benjamin Wallfisch Bernard Gérard Nino Rota Now available in Flac OUT OF PRINT Patrick Cassidy Patrick. September 2016 EAC extraction logfile from 8. FLAC frontend (Windows GUI) Flac-Jacket: a set of scripts for creating FLAC files and an HTML index; FLACTAG: tags single album FLAC files with embedded CUE sheets using data from the MusicBrainz service; MacFLAC Mac OS X FLAC distribution; FLACer for Mac OS X; MP3FS, a read-only FUSE filesystem which can transcode FLAC to MP3 on the fly. 04 - Man Behind the Beatles_ Brian Epstein. All popular music albums format Mp3 / Flac at MusicRW. 4 MB) 07 - While My Guitar Gently Weeps. Artist: Marty Friedman Title Of Album: Tokyo Jukebox 3 Year Of Release: 2020 Label (Catalog#): Avex Entertainment Inc. Pepper's Lonely Hearts Club Band (2004 Millenium Red. A specially designed Flash interface has been installed, and the 16GB USB’s audio and visual contents will be provided in FLAC 44. 00 to our address provided at the bottom of this page. 00b: October 5 2013 at 23:01: Demis Roussos - Greatest Hits (1983) [FLAC] (Philips 1971-1980) 0. Quality: FLAC (Tracks) Artist: Prince Title: I'm Just A Freak Released: 2017 Style: Funk, Pop, Soul, Rock RAR Size: 1. On our site you can download lossless music for free and without registration, favorite performers in flac format, for fans to listen to vinyl digitization - Vinyl rip, gourmets of the music world who want to listen to multi-channel music are offered - Audio-DVD, SACD, DTS 5. Board index » Bootlegs & Rare Records » Bootlegs Discussions » Beatlegs. Quality: FLAC 24 bit / 96 kHz (Tracks) Artist: Chic Title: The Studio Album Collection 1977-1992 Released: 2013 Style: Disco, Funk, Soul RAR Size: 6. 1 Tracklisting: 01 There's A Place (take 5 & 6) 02 Misery (take 2 - 6) 03. Код: Выделить всё CUE Corrector v. 9M: 下载: Darling Nikki: Prince: 2020-08-14 05:20:10: flac: 146. Excellent Stereo Soundboard Recording:: Bootleg Siver CD:: CBR 320 kbps & FLAC. 1kHz, CD-Format | Full Scans Included. © 2015 Calderstone Productions Limited (a division of Universal Music Group) / Apple Films Ltd. The Beatles 'No Obvious Title - First Amendment (Remastered Edition)' (2011 Remasters Workshop : RMW 643) Studio Soundboard Recordings Encoded: 320 Kbps MP3 & FLAC Restored from the 1976 album on Ze Anonym Plattenspieler ZAP 7853 32-bit raw vinyl transfer Declicked, denoised, pitch, phase + level corrected, remastered. b/hakunamatata. 2 (2020) [24bit FLAC] Exotic Sin – Customer’s Copy (2020) [24bit FLAC] Eric Lu – Late Works by Mozart, Schubert & Brahms (2018) [24bit FLAC] Top Posts. $100+ (Introducing the Beatles, if genuine) General. The Beatles - New Year's Day New Year's Day 1962 - Decca Records Audition On January 1, 1962, in the London studio of Decca, John, Paul, George and Pete recorded 15 songs for three hours, with Paul having a cold sang eight, and John only two. FILE "The Beatles - Meet The Beatles!. Pierrepoint - Musik Non Stop. php on line 76 Notice: Undefined index: HTTP_REFERER in. Listen free to The Beatles – The Beatles Greatest Hits FLAC Collection. 1 As Long As You Love Me - Backstreet Boys 2 I Want It That. M:\Audio\Music\B\The Beatles\Sgt. The BEATLES Story-Part 01 THE BIRTH OF THE LIVERPOOL SOUND. The Beatles - 1967 - Magical Mystery Tour Recordin The Beach Boys - 1960 - Time to Get Alone (STU/FLAC) David Lee Roth - 1986 - Eat Em And Smile Outtakes. Here you will discover the rare recordings of "Canterbury" and "UK Prog Rock". I wrote this this script to do the same. 3 aps mp3's using foobar 0. *13 mini-documentaries in MPEG4 The Beatles are my life, and it genuinely bugs me to give anything less than 5 stars for anything that bears their name. flac 36 MB; 05. I'm a fanatic collector of The Beatles bootlegs. It’s often used to digitally store and transfer music without any loss in quality. wav" WAVE TRACK 07 AUDIO TITLE "One After 909" PERFORMER "Beatles" INDEX 01 00:00:00 FILE "08 - From Me To You. Quality: FLAC 16 bit / 44. Buy, preview and download over 30 million tracks in our store. The best howtos and guides for me, when setting up EAC, were the Hydrogenaudio wiki and the Hydrogenaudio forums. Torrent info. These really are eye opening. Patrick Bruel - Ce soir on sort + [FLAC] The Beatles - I Saw Her Standing There 2CD (2013) The Beatles - The U. 2 (2020) [24bit FLAC] Exotic Sin – Customer’s Copy (2020) [24bit FLAC] Eric Lu – Late Works by Mozart, Schubert & Brahms (2018) [24bit FLAC] Top Posts. The Beatles HELL was the unavoidable sequel to the massive 2006 internet hit, The Beatles HATE. The Beatles 'No Obvious Title - First Amendment (Remastered Edition)' (2011 Remasters Workshop : RMW 643) Studio Soundboard Recordings Encoded: 320 Kbps MP3 & FLAC Restored from the 1976 album on Ze Anonym Plattenspieler ZAP 7853 32-bit raw vinyl transfer Declicked, denoised, pitch, phase + level corrected, remastered. Here you can find Music by Artists, bestselling songs, bestselling albums, fresh deals every day. In Things We Said Today and I'll Be Back, the A major chord is heard at the end of each verse although both songs are set in A minor. It borrows from Dante Alighieri’s The Divine Comedy, and it tells the story of the FabFour descending the various circles of HELL (as a war victim would). This is as good as you can get at the moment (2012). Free Download FLAC. FLAC frontend (Windows GUI) Flac-Jacket: a set of scripts for creating FLAC files and an HTML index; FLACTAG: tags single album FLAC files with embedded CUE sheets using data from the MusicBrainz service; MacFLAC Mac OS X FLAC distribution; FLACer for Mac OS X; MP3FS, a read-only FUSE filesystem which can transcode FLAC to MP3 on the fly. I'm not saying you did this but somewhere along the line someone did. FLAC or wav files are no more difficult to handle than mp3 files are. HDtracks is a high-resolution music platform for music lovers to download their favorite tracks in master studio quality. If you prefer -V 2 then change the vbr-quality setting, but not any of the others. flac Moving files from the System drive to a Media Drive. i just didnt want to buy one of these and not have it work. lazonby at 2012-03-29 04:20 CET: Thanks! Would love to see a. Leaether Strip - Showroom Dummies. eric clapton jeff beck jimmy page led zeppelin the who the kinks small faces pretty things the beatles the rolling stones fleetwood mac savoy brown chicken shack the animals. It was compiled by me for the 100 greatest bootlegs blog (March 2016). At least not in stereo (excluding the flat transfers of the original stereo mixes that were included in the Mono Beatles CD box). aif -> CD-R ->. Index Of Flac Beatles. Something Beatles Song. The Beatles USB, containing all of the recently remastered albums, is the coolest thing to be made into the shape of an apple. Beatles Albums and Why People Collect Them When it comes to record collecting, some artists are more popular with collectors than others. Hi guys , I just downloaded every album from The Beatles in. Nahrávejte, sdílejte a stahujte zdarma. flac 36 MB; 05. George Harrison All Things Must Pass Lyrics All Things Must Pass is a triple album by George Harrison, recorded and released after the break-up of The Beatles. Leif Garrett - Alive (Today). Lineage: CD>EAC The Beatles - Black Album (STU/FLAC) - Guitars101 - Guitar Forums. Please feel free to comment and give your own BBI ratings. Your email address will not be published. The Beatles - 1967 - Magical Mystery Tour Recordin The Beach Boys - 1960 - Time to Get Alone (STU/FLAC) David Lee Roth - 1986 - Eat Em And Smile Outtakes. I am thinking about getting an ipod and I am interested in seeing the album cover show up on the display as the songs are playing. The Beatles in Mono > 1-Channel FLAC? Reply #2 – 2010-03-26 14:39:17 You probably save more space by switching to a higher compression setting, and it'd probably take about the same amount of time. INDEX OF SOUNDTRACKS Volume 2 Bear McCreary Beatles Benjamin Wallfisch Bernard Gérard Nino Rota Now available in Flac OUT OF PRINT Patrick Cassidy Patrick. The group, whose best-known line-up comprised John Lennon, Paul McCartney, George Harrison and Ringo Starr, are regarded as the most influential band of all time. Студия: House Of Audio, Irond Ltd. FILE “The Beatles – Magical Mystery Tour (CDP 7 48062 2). Leif Garrett - The Final Countdown. The Beatles - Black Album (Studio FLAC) January 1969 London, England Compilation of outtakes from the "Get Back" sessions. flac” WAVE TRACK 01 AUDIO TITLE “No Reply” PERFORMER “The Beatles” ISRC GBAYE0401924 INDEX 01 00:00:00 TRACK 02 AUDIO TITLE “I’m A Loser” PERFORMER “The Beatles” ISRC GBAYE0401925 INDEX 01 02:18:64 TRACK 03 AUDIO TITLE “Baby’s In Black” PERFORMER. org - Ваш торрент-трекер! (Classic Rock) The Beatles - Live At The Hollywood Bowl 1964-1965 (Universal, 060255705497 2, EU) 2016, FLAC (image+. 69 GB (FLAC) | 3% RAR Recovery Venus Records | Japan | Cat#: VHGD-181 | Genre: Jazz. 1967 - Sgt. The third section when applicable rates the Beatles Believability Index (BBI) of the album as a Beatles project and cites any songs that strengthen that believability. flac Ramones - Do You Remember Rock And Roll Radio. For the Beatles I go with Dr. Magic FLAC to MP3 Converter : FLAC is a lossless audio compression format. / - Directory: Scans/: 2016-Dec-16 15:00:53 - Directory: extras/: 2016-Dec-16 15:00:53 - Directory: 01. 54 GB (ISO) + 1. The Beatles - Meet The Beatles! Albums FLAC. On our site you can download lossless music for free and without registration, favorite performers in flac format, for fans to listen to vinyl digitization - Vinyl rip, gourmets of the music world who want to listen to multi-channel music are offered - Audio-DVD, SACD, DTS 5. Pepper's Lonely Hearts Club Band\04 - Getting Better. Anyway, The "flac" files here ARE NOT flac. 1"PERFORMER "The Beatles"TITLE "1"FILE "The Beatles - 1. 00b: October 5 2013 at 23:01: Demis Roussos - Greatest Hits (1983) [FLAC] (Philips 1971-1980) 0. cue,log,scans) Time: 16 CDs, 15:02:45 min Total Size: 4,85 Gb. Leif Garrett - Love Is The Drug. aif -> CD-R ->. the yardbirds - live 1968 flac uk pop rock psychedelic blues s. Dear Prudence (3:56) 03. Is FLAC a much stronger music data and has a better sound quality than MP 3 320 Kbyte?. Bruce Springsteen - Live Collection [Japan CBS Vinyl 24-9 Audio FLAC 2 Download beatles flac mono Torrents – KickassTorrents, Come and download What It Actually Is And Why It's Important ” Brett December 17, 2012 at 8:36 am. O{+> & The New Power Generation 'Purple High Court' (2008 Eye Records : ER064) Diamonds And Pearls Tour Earl's Court, London, England Monday June 15th, 1992 Stereo Soundboard Recording. But first, let me say that this. Patrick Bruel - Ce soir on sort + [FLAC] The Beatles - I Saw Her Standing There 2CD (2013) The Beatles - The U. Pierrepoint - Musik Non Stop. MC19 crashed several times per day. PDP 010 Matrix No. Index Of Beatles Flac. flac download 15. Hanno segnato un'epoca non solo nella musica ma anche nel costume, nella moda e nella moderna pop art[1]. Студия: House Of Audio, Irond Ltd. In Things We Said Today and I'll Be Back, the A major chord is heard at the end of each verse although both songs are set in A minor. 1 kHz (Tracks) Artist: Anna B Savage Title: A Common Turn Released: 2021 Style: Indie, Alternative, Singer-Songwriter RAR Size: 843 Mb + 242 Mb. flac format, corresponding chord annotations in lab format with the file extension. Patrick Bruel - Ce soir on sort + [FLAC] The Beatles - I Saw Her Standing There 2CD (2013) The Beatles - The U. In case of lack of purchase, you will permanently delete the files within. All popular music albums format Mp3 / Flac at MusicRW. Quality: FLAC (Tracks) Artist: Prince Title: I'm Just A Freak Released: 2017 Style: Funk, Pop, Soul, Rock RAR Size: 1. Tracklist & Download Links. I assume it handles most all file formats for burning as easily? The FLAC Beatles is the best effing Beatles I have ever heard. Index - The Model. Artist: The Beatles Title Of Album: Discography (Japanese Edition) Release Date: 1963-1970 Location: England Label: Toshiba-EMI Genre: Classic Rock Quality: FLAC | lossless (image+. Both are good programs and both have minor annoyances. 1 As Long As You Love Me - Backstreet Boys 2 I Want It That. 8224MHz | FLAC Tracks / 24bit / 88. PERFORMER "The Beatles" INDEX 00 00:00:00 INDEX 01 00:00:33 TRACK 02 AUDIO FILE "The Beatles - Beatles For Sale (CDP 7 46438 2). Start your free trial now!. 00b: October 5 2013 at 23:00: Chris Rea - The Road To Hell (1989) 0. Leif Garrett - Alive (Today). Another Beatles Christmas - 1964. me - Kaavaa Ulla (From Parris Jeyaraj) (2020) 1st Single - Tamil iTunes TRUE MP3 320Kbps 11MB. Pierrepoint - Musik Non Stop. aif -> xACT flac conversion (level 8) DISC1\ 01 Real Good Time Together\ 02 Venus In Furs\ 03 Guess I'm Falling In Love\ 04 After Hours\ 05 All Tomorrow's Parties\ 06 Some Kinda Love\ 07 I'll Be Your Mirror\ 08 Beginning to See the Light\ 09 The Gift\ 10 I Heard Her Call My Name\ 11 Femme Fatale\ 12 Hey Mr. The BEATLES Story-Part 02 GETTING IT ONTO WAX. The group, whose best-known line-up comprised John Lennon, Paul McCartney, George Harrison and Ringo Starr, are regarded as the most influential band of all time. The MFSL record is the best. Exact Audio Copy V1. Anyway, The "flac" files here ARE NOT flac. torrent 320Kbps 11MB : www. 01 - Back in the U. But first, let me say that this. Third Christmas Record - 1965. Doraiswamy Raju and produced by V. I'm A King Bee [0:03:51. However, the band's international discography is complicated, due to different versions of their albums sometimes being released in other countries, particularly during their early years on Capitol Records in North America. formato: FLAC + CUE. 1 - PDP 10/2 Country Of Origin ? Release Date 2003 Total Time. 2 (2020) [24bit FLAC] Exotic Sin – Customer’s Copy (2020) [24bit FLAC] Eric Lu – Late Works by Mozart, Schubert & Brahms (2018) [24bit FLAC] Top Posts. A huge database of Beatles (and other artists) bootlegs (incl. Download The Beatles - Sgt. wav files > Peak Pro XT (subtle tweak / edit / re-index) > xACT 2. There is no other way to get the Beatles in good quality on a digital format. Bruce Springsteen (Steel Mill) The Upstage Asbury Park, NJ January 22, 1971 (Previously Un-circulated) (The penultimate Steel Mill show) Transfer: Cassette Master > Reel > CDR > EAC Rip >. FlacMusicFinder. cue), 24bit/48kHz.